スプリガン Sprigan_(1998)_[720p,BluRay,x264]_-_THORA

ファイル名:スプリガン Sprigan_(1998)_[720p,BluRay,x264]_-_THORA
掲載元URL
情報:

詳細:

Spriggan_(1998)_[720p,BluRay,x264]_-_THORAFormat : MatroskaFile size : 4.36 GiBDuration : 1h 30mnOverall bit rate : 6 889 KbpsMovie name : Spriggan (1998)Encoded date : UTC 2008-04-29 10:42:57Writing application : mkvmerge v2.2.0 (‘Turn It On Again’) built on Mar 4 2008 12:58:26Writing library : libebml v0.7.7 + libmatroska v0.8.1Cover : Yes / YesVideoID : 1Format : AVCFormat/Info : Advanced Video CodecFormat profile : High@L5.1Format settings, CABAC : YesFormat settings, ReFrames : 10 framesMuxing mode : Container profile=Unknown@5.1Codec ID : V_MPEG4/ISO/AVCDuration : 1h 30mnBit rate : 6 111 KbpsNominal bit rate : 6 250 KbpsWidth : 1 280 pixelsHeight : 688 pixelsDisplay aspect ratio : 1.860Frame rate : 23.976 fpsResolution : 24 bitsColorimetry : 4:2:0Scan type : ProgressiveBits/(Pixel*Frame) : 0.289Stream size : 3.86 GiB (89%)Writing library : x264 core 58 r798M 17e5dacEncoding settings : cabac=1 / ref=10 / deblock=1:-3:-3 / analyse=0x3:0x133 / me=umh / subme=7 / me-prepass=0 / brdo=1 / mixed_ref=1 / me_range=24 / chroma_me=1 / trellis=0 / 8x8dct=1 / cqm=2 / deadzone=9,9 / chroma_qp_offset=0 / threads=6 / nr=0 / decimate=1 / mbaff=0 / bframes=10 / b_pyramid=1 / b_adapt=1 / b_bias=0 / direct=1 / wpredb=1 / bime=1 / keyint=250 / keyint_min=25 / scenecut=40(pre) / rc=2pass / bitrate=6250 / ratetol=1.0 / rceq=’blurCplx^(1-qComp)’ / qcomp=1.00 / qpmin=10 / qpmax=51 / qpstep=4 / cplxblur=20.0 / qblur=0.5 / vbv_maxrate=18000 / vbv_bufsize=12000 / ip_ratio=1.40 / pb_ratio=1.30 / aq=1:0.5:15.0Language : JapaneseAudioID : 2Format : AC-3Format/Info : Audio Coding 3Codec ID : A_AC3Duration : 1h 30mnBit rate mode : ConstantBit rate : 640 KbpsChannel(s) : 6 channelsChannel positions : Front: L C R, Surround: L R, LFESampling rate : 48.0 KHzStream size : 414 MiB (9%)Title : AC3 5.1 640 kbpsLanguage : JapaneseTextID : 3Format : ASSCodec ID : S_TEXT/ASSCodec ID/Info : Advanced Sub Station AlphaLanguage : English
関連画像(Google画像検索)
ダウンロード:torrent