0726_143012_CH9-1_아스타를 향해 차구차구.ts

ファイル名:0726_143012_CH9-1_아스타를 향해 차구차구.ts
掲載元URL
情報:

詳細:

할생각은 없음.ImageGeneralID : 1121 (0x461)Complete name : E:TS726_143012_CH9-1_아스타를 향해 차구차구.tsFormat : MPEG-TSFile size : 3.81 GiBDuration : 28mn 45sStart time : UTC 2014-07-26 05:58:47End time : UTC 2014-07-26 05:58:53Overall bit rate mode : VariableOverall bit rate : 19.0 MbpsVideoID : 33 (0x21)Menu ID : 2 (0x2)Format : MPEG VideoFormat version : Version 2Format profile : Main@HighFormat settings, BVOP : YesFormat settings, Matrix : DefaultFormat settings, GOP : M=3, N=15Codec ID : 2Duration : 28mn 45sBit rate : 17.7 MbpsMaximum bit rate : 17.1 MbpsWidth : 1 920 pixelsHeight : 1 080 pixelsDisplay aspect ratio : 16:9Frame rate : 29.970 fpsStandard : ComponentColor space : YUVChroma subsampling : 4:2:0Bit depth : 8 bitsScan type : InterlacedScan order : Top Field FirstCompression mode : LossyBits/(Pixel*Frame) : 0.284Time code of first frame : 00:23:06;06Time code source : Group of pictures headerStream size : 3.55 GiB (93%)Language : KoreanColor primaries : BT.601 PALTransfer characteristics : BT.470 System B, BT.470 System GMatrix coefficients : BT.601Name : ko:VideoAudioID : 36 (0x24)Menu ID : 2 (0x2)Format : AC-3Format/Info : Audio Coding 3Mode extension : CM (complete main)Format settings, Endianness : BigCodec ID : 129Duration : 28mn 45sBit rate mode : ConstantBit rate : 384 KbpsChannel(s) : 2 channelsChannel positions : Front: L RSampling rate : 48.0 KHzBit depth : 16 bitsCompression mode : LossyDelay relative to video : -198msStream size : 79.0 MiB (2%)Language : KoreanName : ko:AudioTextID : 33 (0x21)-1Menu ID : 2 (0x2)Format : EIA-708Muxing mode : A/53 / DTVCC TransportMuxing mode, more info : Muxed in Video #1Duration : 28mn 45sBit rate mode : ConstantStream size : 0.00 Byte (0%)Language : KoreanMenuID : 32 (0x20)Menu ID : 2 (0x2)Duration : 28mn 45sList : 33 (0x21) (MPEG Video, Korean) / 4352 (0x1100) () / 1281 (0x501) () / 36 (0x24) (AC-3, Korean)Language : Korean / / / KoreanService name : 전주 KBS1 DTVService channel number : 9-1Service provider : KBS Digital TVService type : Digital televisionUTC 2014-07-26 02:59:45 : ko:토요12시KBS 뉴스 / / / / 00:11:05 / UTC 2014-07-26 03:10:50 : ko:국악 한마당 / ko:민요와 함께 여름을 보낼수있는 민요와 떠나요 컨셉으로 준비하였습니다. 시원한 뱃노래 부터 팔도의 멋을 느낄수있는 팔도 민요, 귀여운 신동의 가야금 까지 다채롭게 준비하였습니다. / / / 00:48:27 / UTC 2014-07-26 03:59:17 : ko:TV비평 시청자 데스크 / / / / 00:59:56 / UTC 2014-07-26 04:59:13 : ko:그라미의 서커스쇼 / / / / 00:14:49 / UTC 2014-07-26 05:14:02 : ko:외계돼지 피피 / / / / 00:16:10 / UTC 2014-07-26 05:30:12 : ko:아스타를 향해 차구차구 / / / / 00:28:46 / UTC 2014-07-26 05:58:58 : ko:강연100°C / ko:. / / / 00:21:36 / UTC 2014-07-26 06:20:34 : ko:DMZ 대 탐사 / / / / 00:50:58 / UTC 2014-07-26 07:11:32 : ko:KBS청소년기획 세상끝의 집 / / / / 00:47:09 / UTC 2014-07-26 07:58:41 : ko:토요17시KBS뉴스 / / / / 00:11:01 / UTC 2014-07-26 08:09:42 : ko:동물의 왕국 / ko:동물의왕,사자의몰락[재방] / / / 00:50:08 / UTC 2014-07-26 08:59:50 : ko:사랑의 리퀘스트 / / / / 00:59:36 / UTC 2014-07-26 09:59:26 : ko:토요19시KBS 뉴스 / / / / 00:10:21 / UTC 2014-07-26 10:09:47 : ko:3도3미 / / / / 00:58:24 / UTC 2014-07-26 11:08:11 : ko:특선다큐멘터리 / ko:와일드 브라질(3) 가뭄을 견딘 사랑 / / / 00:51:54 / UTC 2014-07-26 12:00:05 : ko:KBS 뉴스9 / / / / 00:43:21 / UTC 2014-07-26 12:43:26 : ko:역사저널 그날 / / / / 00:49:12 / UTC 2014-07-26 13:32:38 : ko:세계는 지금 / / / / 00:48:34 / UTC 2014-07-26 14:21:12 : ko:생방송 심야토론 / ko:140726 / / / 01:38:52 / UTC 2014-07-26 16:00:04 : ko:KBS 뉴스(2450) / / / / 00:07:25 / UTC 2014-07-26 16:07:29 : ko:독립영화관 / / / / 01:26:38 / UTC 2014-07-26 17:34:07 : ko:세계는 지금 / / / / 00:19:04 / UTC 2014-07-26 17:53:11 : ko:인간극장 / ko:삼형제가 돌아왔다 1,2,3부 <화면해설재방송> / / / 01:36:54 / UTC 2014-07-26 19:30:05 : ko:강연100°C / / / / 00:16:58 / UTC 2014-07-26 19:59:46 : ko:KBS뉴스(아침5시 뉴스) / / / / 00:10:02 / UTC 2014-07-26 20:09:48 : ko:KBS걸작 다큐멘터리 / ko:KBS걸작 다큐멘터리-바다숲 / / / 00:50:01 / UTC 2014-07-26 20:59:49 : ko:휴일6시KBS 뉴스 / / / / 00:10:15 / UTC 2014-07-26 21:10:04 : ko:다큐 공감 / / / / 00:40:46 / UTC 2014-07-26 21:50:50 : ko:좋은나라 운동본부2 / / / / 00:20:24 / UTC 2014-07-26 22:11:14 : ko:한국 한국인 / / / / 00:48:52 / UTC 2014-07-26 23:00:06 : ko:휴일8시KBS 뉴스 / / / / 00:08:40 / UTC 2014-07-26 23:08:46 : ko:일요일에 만난 사람(전북권) / / / / 00:50:00 / UTC 2014-07-27 00:01:20 : ko:전원드라마 <산 너머 남촌에는 2> / ko:철수(김찬우)네 막내사위 병구(최종명)는 오백만원만 빌려달라는 어머니의 전화에 곤란해 한다. 아내 화영(유세례)는 우리도 형편이 안된다며 반대하고, 의지하던 동서 승우(이주석)도 웬일인지 냉랭하게 외면하는데.. / / / 01:00:26 / UTC 2014-07-27 01:01:46 : ko:엄마의 탄생 / / / / 00:59:10 / UTC 2014-07-27 02:00:56 : ko:TV쇼 진품명품 / / / / 00:59:14 /
関連画像(Google画像検索)
ダウンロード:torrent