[KamiFS]_Phantasy_Star_Online_2_-_02_[x264][720P][8Bits][AAC-LC][SUBS][1FF8E621]

ファイル名:[KamiFS]_Phantasy_Star_Online_2_-_02_[x264][720P][8Bits][AAC-LC][SUBS][1FF8E621]
掲載元URL
情報:http://kamifansubs.com/

詳細:

ImageSynopsis :TV anime adaptation of the online RPG game Phantasy Star Online 2. It will feature an original story that takes place on Earth in the near future.Background :Phantasy Star Online 2 is the direct sequel of the original series that was published by Sega. The game was released for Windows on July 4, 2012, and for PlayStation Vita on February 28, 2013. The mobile game titled Phantasy Star Online 2es became available on the Android platform on April 7, 2014, and on iOS on May 14, 2014.http://kamifansubs.com/index.php/releases/phantasy-star-online-2-the-anime/Project Lead : LPaysanMain Translators: Crunchy RollOP Song : lyrical-nonsense.com (Thanks a *Blinks*)(Romaji & TL)ED Song : PiaPia (Romaji) & KenXyro & hibiscus (TL)Timers: iORcHiD & LPaysanTypesetter & Styler: iORcHiDEditors: LPaysanTS Provider: rokugachanKaraoke: LPaysanLogo: LPaysanEncoder: LPaysanQC: iORcHiD & LPaysan******* Video & Audio *******

Format : AVCFormat/Info : Advanced Video CodecFormat profile : High@L4Format settings, CABAC : YesFormat settings, ReFrames : 8 framesCodec ID : V_MPEG4/ISO/AVCDuration : 24mn 19sBit rate : 2 230 KbpsWidth : 1 280 pixelsHeight : 720 pixelsDisplay aspect ratio : 16:9Frame rate mode : ConstantFrame rate : 23.976 (24000/1001) fpsColor space : YUVChroma subsampling : 4:2:0Bit depth : 8 bitsScan type : ProgressiveBits/(Pixel*Frame) : 0.101Stream size : 388 MiB (91%)Writing library : x264 core 148 r2665+53 6629127 t_mod_Custom [8-bit@all X86_64]Encoding settings : cabac=1 / ref=8 / deblock=1:1:1 / analyse=0x3:0x133 / me=umh / subme=6 / psy=1 / fade_compensate=0.00 / psy_rd=0.60:0.00 / mixed_ref=1 / me_range=16 / chroma_me=1 / trellis=2 / 8x8dct=1 / cqm=0 / deadzone=21,11 / fast_pskip=1 / chroma_qp_offset=-2 / threads=6 / lookahead_threads=1 / sliced_threads=0 / nr=0 / decimate=1 / interlaced=0 / bluray_compat=0 / constrained_intra=0 / fgo=0 / bframes=16 / b_pyramid=2 / b_adapt=1 / b_bias=0 / direct=1 / weightb=0 / open_gop=0 / weightp=2 / keyint=240 / keyint_min=23 / scenecut=40 / intra_refresh=0 / rc_lookahead=40 / rc=crf / mbtree=1 / crf=18.0000 / qcomp=0.60 / qpmin=10:10:10 / qpmax=51:51:51 / qpstep=4 / ip_ratio=1.40 / aq=1:0.00 / aq-sensitivity=10.00 / aq-factor=1.00:1.00:1.00 / aq2=0 / aq3=0Language : Multiple languagesDefault : YesForced : NoAudioID : 2Format : AACFormat/Info : Advanced Audio CodecFormat profile : LCCodec ID : A_AACDuration : 24mn 19sBit rate : 176 KbpsChannel(s) : 2 channelsChannel positions : Front: L RSampling rate : 48.0 KHzFrame rate : 46.875 fps (1024 spf)Compression mode : LossyStream size : 30.6 MiB (7%)Language : JapaneseDefault : YesForced : NoTextID : 3Format : ASSCodec ID : S_TEXT/ASSCodec ID/Info : Advanced Sub Station AlphaDuration : 24mn 11sBit rate : 31.9 KbpsCount of elements : 9183Compression mode : LosslessStream size : 5.52 MiB (1%)Language : EnglishDefault : YesForced : NoMenu00:00:00.000 : en:Intro00:01:20.270 : en:Opening00:02:50.518 : en:Part 100:11:17.534 : en:entr’acte / en:Part 200:22:10.234 : en:Ending00:23:40.034 : en:Preview00:24:10.034 : en:Credits


関連画像(Google画像検索)
ダウンロード:torrent