[Wien-Subs] Tsubasa Chronicle – 01 [Hi10][1080P][SoftSub]

ファイル名:[Wien-Subs] Tsubasa Chronicle – 01 [Hi10][1080P][SoftSub]
掲載元URL
情報:http://en.wien-subs.ro

詳細:

Hello, we are a group of people who translate Japanese series.And we want to do this a long time.We will be more unique fansub, and we will translate only anime that deserves translated.http://en.wien-subs.ro – High Quality Subs [English & Raw]If you want to suport us you can enter on this site http://en.wien-subs.ro/2016/02/09/tsubasa-chronicle-01/ or you can let a comment, feedback is very important for us since we are new in this World of Fansubs.
We like to present Tsubasa Chronicle – 01

During an excavation at the mysterious ruins in Clow Country, Syaoran discovers his childhood friend Princess Sakura appear on the site with wings that disperse into many feathers.As the feather’s disappear to different dimensions, so does Sakura’s memory. In attempts to save Sakura’s life and restore her memory, Syaoran travels through to another world to find a solution.There’s only one thing left he can do. Travel through to different dimensions to collect Sakura’s feathers.Helping out with the quest is Kurogane, an exiled ninja from Japan Country who wishes to return to his world, the runaway magician, Fay, who desires to jump between each world never to return to his own and the white meat-bun shaped creature, Mokona.Image
About Tsubasa ChronicleType : TVSynonyms : Tsubasa Reservoir Chronicle OR Tsubasa Chronicle Season 1Episodes : 26Released at : 09.04.2005Finished at : 15.09.2005Duration : 25 min / epGeners : Action, Adventure, Fantasy, Magic, Romance, Shounen, SupernaturalRating : PG – 13 (Teens 13 or older)MyAnimeList : Tsubasa ChronicleYouTube : https://www.youtube.com/watch?v=YtNS9u0o5psEpisode FeatureSubtitles : Yes | EN (SoftSub)Emblem : NoSceneCut : NoAudio : Yes | JPFormat : MKV | X264 | 10Biti | FilteredRezolution : 1920×1080 @ 23.976 fpsEncoded : 10Bit
Wien-Subs is currently looking for Translators, Verifiers and TypesettersSpecial Thanks [KazuyaShuu, AlinKun and DiceSenshibooks]

===============================+Advenced Tehnical Information+===============================GeneralUnique ID : 225094994851734203995089210175837900924 (0xA957B816642E1C189413B66D21B7107C)Complete name : /home/workspace/[Wien-Subs] Tsubasa Chronicle – 01.mkvFormat : MatroskaFormat version : Version 4 / Version 2File size : 550 MiBDuration : 25mn 1sOverall bit rate : 3 073 KbpsMovie name : Tsubasa Chronicle 01 – Eine unvermeidliche BegegnungEncoded date : UTC 2016-02-09 17:15:16Writing application : mkvmerge v8.4.0 (‘A better way to fly’) 64bitWriting library : libebml v1.3.1 + libmatroska v1.4.2DURATION : 00:24:24.130000000NUMBER_OF_FRAMES : 23NUMBER_OF_BYTES : 1828_STATISTICS_WRITING_APP : mkvmerge v8.4.0 (‘A better way to fly’) 64bit_STATISTICS_WRITING_DATE_UTC : 2016-02-09 17:15:16_STATISTICS_TAGS : BPS DURATION NUMBER_OF_FRAMES NUMBER_OF_BYTESVideoID : 1Format : AVCFormat/Info : Advanced Video CodecFormat profile : High 10@L5.0Format settings, CABAC : YesFormat settings, ReFrames : 6 framesCodec ID : V_MPEG4/ISO/AVCDuration : 25mn 1sBit rate : 2 371 KbpsWidth : 1 920 pixelsHeight : 1 080 pixelsDisplay aspect ratio : 16:9Frame rate mode : ConstantFrame rate : 23.976 fpsColor space : YUVChroma subsampling : 4:2:0Bit depth : 10 bitsScan type : ProgressiveBits/(Pixel*Frame) : 0.048Stream size : 424 MiB (77%)Writing library : x264 core 148 r2665 a01e339Encoding settings : cabac=1 / ref=6 / deblock=1:1:1 / analyse=0x3:0x113 / me=tesa / subme=9 / psy=1 / psy_rd=0.40:0.00 / mixed_ref=1 / me_range=16 / chroma_me=1 / trellis=1 / 8x8dct=1 / cqm=0 / deadzone=21,11 / fast_pskip=1 / chroma_qp_offset=-2 / threads=6 / lookahead_threads=1 / sliced_threads=0 / nr=0 / decimate=1 / interlaced=0 / bluray_compat=0 / constrained_intra=0 / bframes=5 / b_pyramid=2 / b_adapt=1 / b_bias=0 / direct=1 / weightb=1 / open_gop=0 / weightp=2 / keyint=250 / keyint_min=23 / scenecut=40 / intra_refresh=0 / rc_lookahead=40 / rc=crf / mbtree=1 / crf=18.0 / qcomp=0.60 / qpmin=0 / qpmax=81 / qpstep=4 / ip_ratio=1.40 / aq=1:0.60Default : YesForced : NoAudioID : 2Format : AC-3Format/Info : Audio Coding 3Mode extension : CM (complete main)Format settings, Endianness : BigCodec ID : A_AC3Duration : 25mn 1sBit rate mode : ConstantBit rate : 640 KbpsChannel(s) : 2 channelsChannel positions : Front: L RSampling rate : 48.0 KHzBit depth : 16 bitsCompression mode : LossyStream size : 115 MiB (21%)Language : JapaneseDefault : YesForced : NoText #1ID : 3Format : ASSCodec ID : S_TEXT/ASSCodec ID/Info : Advanced Sub Station AlphaCompression mode : LosslessTitle : EnglishLanguage : EnglishDefault : YesForced : YesText #2ID : 4Format : ASSCodec ID : S_TEXT/ASSCodec ID/Info : Advanced Sub Station AlphaCompression mode : LosslessTitle : English_OPLanguage : EnglishDefault : NoForced : No
関連画像(Google画像検索)
ダウンロード:torrent