[2000.03.03] Ari PROJECT (ALI PROJECT) – 198824 Egg-man + PV (320X240 XVID MP3) AVI

ファイル名:[2000.03.03] Ari PROJECT (ALI PROJECT) – 198824 Egg-man + PV (320X240 XVID MP3) AVI
掲載元URL
情報:

詳細:

Concierto de ALI PROJECT (en ese entonces Ari PROJECT) del año 1988.Media Info:

GeneralFormat : AVIFormat/Info : Audio Video InterleaveFile size : 255 MiBDuration : 48mn 16sOverall bit rate mode : VariableOverall bit rate : 738 KbpsWriting application : MediaCoder 0.6VideoID : 0Format : MPEG-4 VisualFormat profile : Simple@L3Format settings, BVOP : NoFormat settings, QPel : NoFormat settings, GMC : No warppointsFormat settings, Matrix : Default (H.263)Codec ID : XVIDCodec ID/Hint : XviDDuration : 48mn 16sBit rate : 635 KbpsWidth : 320 pixelsHeight : 240 pixelsDisplay aspect ratio : 4:3Frame rate : 30.000 fpsColor space : YUVChroma subsampling : 4:2:0Bit depth : 8 bitsScan type : ProgressiveCompression mode : LossyBits/(Pixel*Frame) : 0.276Stream size : 219 MiB (86%)Writing library : XviD 1.2.0.dev47 (UTC 2006-11-01)AudioID : 1Format : MPEG AudioFormat version : Version 1Format profile : Layer 3Mode : Joint stereoMode extension : MS StereoCodec ID : 55Codec ID/Hint : MP3Duration : 48mn 16sBit rate mode : VariableBit rate : 89.3 KbpsChannel(s) : 2 channelsSampling rate : 44.1 KHzCompression mode : LossyStream size : 30.8 MiB (12%)Alignment : Aligned on interleavesInterleave, duration : 26 ms (0.78 video frame)Interleave, preload duratio : 507 ms

GeneralFormat : AVIFormat/Info : Audio Video InterleaveFile size : 15.0 MiBDuration : 3mn 48sOverall bit rate mode : VariableOverall bit rate : 551 KbpsWriting application : VirtualDubMod 1.5.10.2 (build 2542/release)Writing library : VirtualDubMod build 2542/releaseVideoID : 0Format : MPEG-4 VisualFormat profile : Advanced Simple@L5Format settings, BVOP : 1Format settings, QPel : NoFormat settings, GMC : No warppointsFormat settings, Matrix : Default (H.263)Codec ID : XVIDCodec ID/Hint : XviDDuration : 3mn 48sBit rate : 449 KbpsWidth : 320 pixelsHeight : 240 pixelsDisplay aspect ratio : 4:3Frame rate : 29.970 fpsColor space : YUVChroma subsampling : 4:2:0Bit depth : 8 bitsScan type : ProgressiveCompression mode : LossyBits/(Pixel*Frame) : 0.195Stream size : 12.2 MiB (82%)Writing library : XviD 67AudioID : 1Format : MPEG AudioFormat version : Version 1Format profile : Layer 3Mode : Joint stereoCodec ID : 55Codec ID/Hint : MP3Duration : 3mn 48sBit rate mode : VariableBit rate : 89.7 KbpsNominal bit rate : 96.0 KbpsChannel(s) : 2 channelsSampling rate : 32.0 KHzCompression mode : LossyStream size : 2.44 MiB (16%)Alignment : Split accross interleavesInterleave, duration : 33 ms (1.00 video frame)Interleave, preload duratio : 500 msWriting library : LAME3.99rEncoding settings : -m j -V 4 -q 2 -lowpass 15.1 –abr 96


関連画像(Google画像検索)
ダウンロード:torrent