[Raw][第66回 NHK紅白歌合戦][66th NHK Kouhaku Utagassen][2015.12.31][HDTVRip][720P][MP4]

ファイル名:[Raw][第66回 NHK紅白歌合戦][66th NHK Kouhaku Utagassen][2015.12.31][HDTVRip][720P][MP4]
掲載元URL
情報:

詳細:

【紅白歌合戦 2015・出演者・曲目一覧】紅組が勝利!視聴率が発表になりました!PR: 確定申告のご相談は滝口税理士事務所(東京)紅 組白 組司会 紅組=綾瀬はるか司会 白組=井ノ原快彦〜前半〜2) 大原櫻子(初出場) 19:21〜 /瞳 →動画を見る4) 伍代夏子 19:28〜 /東京五輪音頭 5) 乃木坂46(初出場) 19:31〜 /君の名は希望 →動画を見る7) E-girls 19:39〜/Dance Dance Dnace9) 坂本冬美 19:46〜/祝い酒1) 郷ひろみ 19:18〜/2億4千億の瞳 エクキゾチックジャパン 3) SEXY ZONE 19:24〜 /ニッポンCha-Cha-Cha チャンピオン 6) 三山ひろし(初出場) 19:35〜 /お岩木山 →動画を見る8) SEKAI NO OWARI 19:42〜 /プレゼント 10) 徳永英明 19:50〜 /時代<特別企画・アニメ紅白> 19:54〜(司会:ちびまる子/ウィスパー)11) μ’s(初出場) 20:10〜/それは僕たちの奇跡 →動画を見る13) AAA  20:18〜/恋音と雨空 15) 島津亜矢 20:24〜/帰らんちゃよか17) 藤あや子 20:32〜/曼珠沙華 19) miwa 20:42〜/fighting -Φ- girls 22) 和田アキ子 20:54〜/笑って許して24) 天童よしみ 21:02〜/人生一路 12) 山内惠介(初出場) 20:14〜 /スポットライト →動画を見る14) 星野源(初出場) 20:21〜 /SUN →動画を見る16) ゲスの極み乙女。(初出場) 20:28〜 /私以外私じゃないの →動画を見る18) ゆず 20:37〜 /かける 20) 氷川きよし 20:47〜 /男花21) 細川たかし 20:50〜/心のこり 23) 関ジャニ∞ 20:58〜/前向きスクリーム! GeneralComplete name : [Raw][66th NHK Kouhaku Utagassen][2015.12.31][HDTVRip][720P][MP4].mp4Format : MPEG-4Format profile : Base MediaCodec ID : isomFile size : 6.42 GiBDuration : 4h 25mnOverall bit rate : 3 469 KbpsVideoID : 1Format : AVCFormat/Info : Advanced Video CodecFormat profile : High@L3.1Format settings, CABAC : YesFormat settings, ReFrames : 4 framesCodec ID : avc1Codec ID/Info : Advanced Video CodingDuration : 4h 24mnBit rate : 3 336 KbpsMaximum bit rate : 18.2 MbpsWidth : 1 280 pixelsHeight : 720 pixelsDisplay aspect ratio : 16:9Frame rate mode : ConstantFrame rate : 29.970 fpsColor space : YUVChroma subsampling : 4:2:0Bit depth : 8 bitsScan type : ProgressiveBits/(Pixel*Frame) : 0.121Stream size : 6.18 GiB (96%)Writing library : x264 core 138 r2359+704+48 3f879a0 tMod [8-bit@4:2:0 X86_64]AudioID : 2Format : AACFormat/Info : Advanced Audio CodecFormat profile : LCCodec ID : 40Duration : 4h 25mnBit rate mode : ConstantBit rate : 128 KbpsChannel(s) : 2 channelsChannel positions : Front: L RSampling rate : 48.0 KHzCompression mode : LossyStream size : 243 MiB (4%)Language : new
関連画像(Google画像検索)
ダウンロード:torrent